Skip to main content

The Nth Power Live at Gratitude Harvest Festival on 2013-09-07

Audio Preview

etree
The Nth Power Live at Gratitude Harvest Festival on 2013-09-07




01 Spirits
02 Only Love
03 ?Walk On The Water?
04 ???
05 ?Holy Rain?
06 Only You
07 band intros
08 ?Like I Do? (w/ Viveca Hawkins)
09 banter
10 Leave Me Alone (w/ w/ Nick Daniels & Ian Neville)
11 outro

Notes:
^ w/ Viveca Hawkins On Vocals & Skerik on Sax
# w/ Nick Daniels on Bass & Ian Neville On Guitar


Collection TheNthPower
Band/Artist The Nth Power
Venue Gratitude Harvest Festival
Location Dartmouth, MA

Source Schoeps MK41>KC5>CMC6>Sonosax SX-R4(24bit/48khz)
Lineage WAV>USB>Macbook Pro>Wave Editor(tracking,fades,resample(izotope)/dither(mbit+)to 16 bit/44.1k)>XAct(FLAC 8,ffp,fix sbe)
Taped by Andy Murray
Transferred by Andy Murray

Notes

The Nth Power
2013-09-07
Gratitude Harvest Festival
Dartmouth, MA

Mics were left of center at the soundboard

MK41s were DIN

Source:
Schoeps mk41>KC5>CMC6>Sonosax SX-R4
(24bit/48khz)

Lineage:
WAV>USB>Macbook Pro>Wave Editor(tracking,fades,resample(izotope)/dither(mbit+)to 16 bit/44.1k)>XAct(FLAC 8,ffp,fix sbe)

Taped by: Andy Murray
Transferred by: Andy Murray

Band:
Nikki Glaspie - Drums, Vocals
Nigel Hall - Keys, Vocals
Nick Cassarino - Guitar, Vocals
Nate Edgar - Bass
Wheatie - Percussion

1 Set

length expanded size cdr WAVE problems fmt ratio filename
7:19.63 77587820 B --- -- ----- wav 1.0000 nthpower2013-09-07_mk41_1644_d1t01.wav
9:01.27 95495948 B --- -- ----- wav 1.0000 nthpower2013-09-07_mk41_1644_d1t02.wav
7:58.23 84373340 B --- -- ----- wav 1.0000 nthpower2013-09-07_mk41_1644_d1t03.wav
5:24.65 57306524 B --- -- ----- wav 1.0000 nthpower2013-09-07_mk41_1644_d1t04.wav
8:01.34 84928412 B --- -- ----- wav 1.0000 nthpower2013-09-07_mk41_1644_d1t05.wav
8:15.39 87409772 B --- -- ----- wav 1.0000 nthpower2013-09-07_mk41_1644_d1t06.wav
1:38.70 17451884 B --- -- ----- wav 1.0000 nthpower2013-09-07_mk41_1644_d1t07.wav
5:37.56 59578556 B --- -- ----- wav 1.0000 nthpower2013-09-07_mk41_1644_d1t08.wav
1:24.39 14909372 B --- -- ----- wav 1.0000 nthpower2013-09-07_mk41_1644_d1t09.wav
7:41.56 81452156 B --- -- ----- wav 1.0000 nthpower2013-09-07_mk41_1644_d1t10.wav
1:55.10 20309564 B --- -- ----- wav 1.0000 nthpower2013-09-07_mk41_1644_d1t11.wav
64:19.32 680803348 B 1.0000 (11 files)

comment
Reviews

There are no reviews yet. Be the first one to write a review.
DOWNLOAD OPTIONS
In Collection
The Nth Power
In Collection
Live Music Archive
Uploaded by
andyjah
on 9/29/2013
Views
48
SIMILAR ITEMS (based on metadata)
The Nth Power
by The Nth Power
etree
eye 50
favorite 0
comment 0
Source: Schoeps MK41>KC5>CMC6>Sonosax SX-R4(24bit/48khz)
The Nth Power
by The Nth Power
etree
eye 173
favorite 0
comment 1
favoritefavoritefavoritefavorite ( 1 reviews )
Source: Schoeps MK41/MK22>Sonosax SX-R4
The Nth Power
by The Nth Power
etree
eye 408
favorite 0
comment 1
favoritefavoritefavoritefavoritefavorite ( 1 reviews )
Source: Telefunken ELA M260 Hypers & AKG c480b/ck62 3'Split
The Nth Power
by The Nth Power
etree
eye 160
favorite 0
comment 0
Source: Busman BSC-1 (cards)-> Naiant Littlebox (OT)-> PCM-M10 (24/48)-> Micro SD
The Nth Power
by The Nth Power
etree
eye 44
favorite 0
comment 0
Source: Schoeps MK41/MK22>Sonosax SX-R4
The Nth Power
etree
eye 112
favorite 0
comment 0
Source: source1: akg 481 (on stage) > Lunatec V2 > Edirol R-44 > WAV (24/48k), source2: akg 482 (3' split) > Lunatec V2 > Edirol R-44 > WAV (24/48k)
The Nth Power
by The Nth Power
etree
eye 45
favorite 0
comment 0
Source: Schoeps mk41/sb>Sonosax SX-R4
The Nth Power
by The Nth Power
etree
eye 42
favorite 0
comment 0
Source: Rode nt6 > Roland r44(Oade CMod)(about 30-40' back/7' up/DFC)
The Nth Power
by The Nth Power
etree
eye 52
favorite 0
comment 0
Source: Sdb
The Nth Power
by The Nth Power
etree
eye 179
favorite 0
comment 0
Source: source1: akg 481 (overhead stagelip) > Lunatec V2 > Edirol R-44 > WAV (24/48k), source2: sbd > Edirol R-44 > WAV (24/48k)